Youtube/Flash YUV

This forum is for video and audio help and discussion.

Youtube/Flash YUV

Postby Johny-115 » Fri Mar 18, 2011 3:57 pm

- Ive read that Flash Player converts YUV video to RGB for playback ... yet when i upload videos they are always displayed as greyish YUV .... how can i fix that ?

- http://www.youtube.com/watch?v=_m1_j9neuQA
this is not my video, dunno what its about ... but its exactly my case ... my videos looks like bottom video YUV with no conversion, while on KMPLayer etc they look like top one

- also i noticed my exact same files actually work on Vimeo (look as top one)

example of my encode:
Code: Select all
General
Format                           : MPEG-4
Format profile                   : Base Media / Version 2
Codec ID                         : mp42
File size                        : 76.2 MiB
Duration                         : 1mn 7s
Overall bit rate                 : 9 498 Kbps
Encoded date                     : UTC 2011-03-09 16:28:08
Tagged date                      : UTC 2011-03-09 16:28:08
©TIM                             : 00:00:00:00

Video
ID                               : 1
Format                           : AVC
Format/Info                      : Advanced Video Codec
Format profile                   : High@L3.1
Format settings, CABAC           : Yes
Format settings, ReFrames        : 3 frames
Format settings, GOP             : M=2, N=33
Codec ID                         : avc1
Codec ID/Info                    : Advanced Video Coding
Duration                         : 1mn 7s
Bit rate mode                    : Constant
Bit rate                         : 9 343 Kbps
Nominal bit rate                 : 10 000 Kbps
Width                            : 1 280 pixels
Height                           : 720 pixels
Display aspect ratio             : 16:9
Frame rate mode                  : Constant
Frame rate                       : 25.000 fps
Standard                         : PAL
Color space                      : YUV
Chroma subsampling               : 4:2:0
Bit depth                        : 8 bits
Scan type                        : Progressive
Bits/(Pixel*Frame)               : 0.406
Stream size                      : 74.9 MiB (98%)
Language                         : English
Encoded date                     : UTC 2011-03-09 16:28:08
Tagged date                      : UTC 2011-03-09 16:28:08
Color primaries                  : BT.709-5, BT.1361, IEC 61966-2-4, SMPTE RP177
Transfer characteristics         : BT.709-5, BT.1361
Matrix coefficients              : BT.709-5, BT.1361, IEC 61966-2-4 709, SMPTE RP177

Audio
ID                               : 2
Format                           : AAC
Format/Info                      : Advanced Audio Codec
Format profile                   : LC
Codec ID                         : 40
Duration                         : 1mn 7s
Bit rate mode                    : Variable
Bit rate                         : 158 Kbps
Maximum bit rate                 : 245 Kbps
Channel(s)                       : 2 channels
Channel positions                : Front: L R
Sampling rate                    : 44.1 KHz
Compression mode                 : Lossy
Stream size                      : 1.27 MiB (2%)
Language                         : English
Encoded date                     : UTC 2011-03-09 16:28:08
Tagged date                      : UTC 2011-03-09 16:28:08
Johny-115
 
Joined: 15 Oct 2006

Return to Video & Audio Help

Who is online

Users browsing this forum: No registered users and 4 guests